Swiped

Swiped (3,1 Go)

Swiped (original title)France, Belgium.TV-PGRéalisé Par:

Télécharger Le Film Swiped Gratuitement

         
Votre note: 0
8.5 2 votes

Synopsis

En mettant au point une application de rencontres coquines révolutionnaire, deux colocataires diffusent un parfum de scandale sur tout leur campus.NFO Show/hide text General Unique ID : 98073038687725113831623824559653451761 (0x49C82E213B493DB8BBC2B5D06F8AF7F1) Complete name : Swiped.2018.FRENCH.1080p.WEB.DDP5.1.x264-AKLHD.WwW.Zone-Telechargement.Net.mkv Format : Matroska Format version : Version 4 / Version 2 File size : 3.10 GiB Duration : 1 h 33 min Overall bit rate : 4 732 kb/s Encoded date : UTC 2019-08-20 04:50:44 Writing application : mkvmerge v36.0.0 ('Is That Jazz?') 64-bit Writing library : libebml v1.3.9 + libmatroska v1.5.2 Video ID : 1 Format : AVC Format/Info : Advanced Video Codec Format profile : High@L4 Format settings : CABAC / 3 Ref Frames Format settings, CABAC : Yes Format settings, ReFrames : 3 frames Codec ID : V_MPEG4/ISO/AVC Duration : 1 h 33 min Bit rate : 4 634 kb/s Width : 1 920 pixels Height : 1 080 pixels Display aspect ratio : 16:9 Frame rate mode : Constant Frame rate : 23.976 (24000/1001) FPS Color space : YUV Chroma subsampling : 4:2:0 Bit depth : 8 bits Scan type : Progressive Bits/(Pixel*Frame) : 0.093 Stream size : 3.03 GiB (98%) Default : Yes Forced : No Audio ID : 2 Format : AAC Format/Info : Advanced Audio Codec Format profile : HE-AAC / LC Format settings : Explicit Codec ID : A_AAC-2 Duration : 1 h 33 min Bit rate : 96.0 kb/s Channel(s) : 2 channels Channel positions : Front: L R Sampling rate : 48.0 kHz / 24.0 kHz Frame rate : 23.438 FPS (1024 SPF) Compression mode : Lossy Stream size : 64.4 MiB (2%) Language : French Default : Yes Forced : No

Swiped () – IMDb

Titre original Swiped
IMDb Note 8.3 1,851 votes

Recommandée Pour Vous :

Telecharger Swiped Torrent Telecharger Swiped 1fichier Telecharger Swiped Uptobox Regarder Swiped En Streaming